24 Bit Flac Blogspot

I've downloaded a bunch of 78rpm rips which have been transferred at 24-bit and made available as FLAC files in lossless or mp3. 16-bit listening test among respondents. Helland - Sunny Mornings (2020/FLAC). FLAC(フラック、Free Lossless Audio Codec)は、オープンフォーマットの可逆圧縮音声ファイルフォーマットである。 可逆圧縮であるため、元の音声データからの音質の劣化が無い。. Genre : Jazz Release Date : 2020 Format : Flac (tracks) Quality : Lossless. The parameters are identical to SACD (Super Audio Compact Disc PCM Stereo). Rory Gallagher – Albums Collection (1971-2020) {WEB Hi-Res} WEB Download | 16x Discs | Hi-Res | FLAC Tracks / 24bit / 96kHz Total Size: 22. 24 bit / 96 kHz Hi-Resolution Free FLAC. 01-Hotel California. flac BIS1447-002-flac_24. Savage Garden - The Singles (2015) [24bit FLAC] Susanna Stivali - A Secret Place (2003/2014) [24bit FLAC] Johann Sebastian Bach - The Art of Fugue, BWV1080 - Rachel Podger, Brecon Baroque (2016) [24bit FLAC]. 1 kHz (Tracks). Once In A Blue Moon 2. com Donald Fagen's 1982 solo debut extends the sleek, smart pop craft of his work with Steely Dan into the realm of the concept album, taking the Dan's penchant for intricate plotting, evocative narrative voices, and allusive imagery to the logical next step. 流星のHowl (Hi-Res) 4. Leo Addeo) - MacArthur Park And Other Favorites (2018 24/96 FLAC). At a guess, you're using the 3rd-party FLAC plugin from sourceforge. ph The xx 24 bit flac yaklaşık parça boyutları 100 mb civarında çalmaya başladığımda cızırtılı geldi ses bunun sebebi. Container: flac (tracks) Quality: Hi-Fi, lossless audio Sample Rate: 192000 kHz / 24 bit, Stereo Source: Digital download Album Artist/Name: Rod Stewart / The Rod Stewart Album Genre: Pop Release Date: 1969 www publisher: hd24bit. Some Other Summer. About R00y. You must downconvert your ALAC file to 16-bit yourself. Download adele 21 vinyl flac Torrent For Free, Full Download. FLAC Lily Allen - No Shame [HIGHRESAUDIO HRA 24bits/44. Very happy about the FLAC support, something I’ve been asking for since the PS3. John Mayer - Born and Raised Flac 24-BIT Flac || 1571 kbps || 24 bit || 44. ALAC is the Apple equivalent of FLAC and makes it possible to play back 96kHz/24bit in iTunes without any additional software: XLD format converter. You Can't Do This To Me Anymore. Refer back to the above section on dynamic range. [HQ-FLAC] Metallica - Nothing Else Matters. 1) Is FLAC 24bit sufficient or should I go for 32bit? Audacity only has 24bit option and I read that there is very little difference between 24bit and 32bit (except 32bit takes up a lot more HD space. Groove School 10. flac BIS1447-002-flac_24. Various Artists ~ Taalam (1999) [Hi-Res 24Bit FLAC]. So I have a 16-bit FLAC audio file of a song and also a 24-bit version. Tags: Hi-Res 24 bit FLAC 16 bit Electronic Club. It Ain't Easy (04:24) 07. com/v/0Ts5tg7R/file. By admin flac-music 2020, Jazz, Blues 0 Comments. 01 - For A Pessimist, I'm Pretty Optimistic. Flac || 4863 kbps || 24 bit || 192 kHz Artist : Green Day Album : ¡Uno! Released : September 21, 2012 L. About audio formats FLAC and MP3. The player code will then be asking the output device for a SourceDataLine which matches this format so that it can write the decoded data to the line. ALAC is the Apple equivalent of FLAC and makes it possible to play back 96kHz/24bit in iTunes without any additional software: XLD format converter. Please answer only if you are 100% certain of what Im talking about here and you have tried it as you. How to Playback All Lossless Format & 24bit Lossless (NEW). Innocence 33. FLAC(フラック、Free Lossless Audio Codec)は、オープンフォーマットの可逆圧縮音声ファイルフォーマットである。 可逆圧縮であるため、元の音声データからの音質の劣化が無い。. Nahrávejte, sdílejte a stahujte zdarma. Points Of Authority. FLAC is a free lossless compressed audio format which supports streaming and archival. Audio Format: FLAC HI-RES / MP3 320K / RAR Catalog Number: VICL-70244 Release Date: 2020. Holy Ghost! - Dynamics (2013) [24 bit FLAC] vinyl; PAPA - Tender Madness (2013) [FLAC] Lady Gaga - ARTPOP 2013 WebV2 [Bubanee] Tina Arena - Reset 2013 320kbps CBR MP3; Natalie Grant - Hurricane (Deluxe Edition) 2013 32 White Denim - Corsicana Lemonade (2013) [FLAC] Emo (Vol. With 24 bits, you can capture the noise floor of the recording setup and such with more resolution and detail, even though at playback that extra stuff is generally going to be below your ambient room noise level anyway and drowned out by that, not to mention by the actual intended sounds (music) itself. com/gameplayspro. mp4; King Contastin II and Queen Anne Marie when they were Bit Torrent search album, Queen II, which saw them enter the British Top 5. Bir kere deneme amaçlı 24-bit flac indirdim bu adrestenkat. Quality: FLAC 24 bit / 96 kHz (Tracks) Artist: Pasquale Grasso Title: Solo Standards Released: 2020 Style: Jazz RAR Size: 870 Mb Tracklist: 01. Bir kere deneme amaçlı 24-bit flac indirdim bu adrestenkat. So I have a 16-bit FLAC audio file of a song and also a 24-bit version. Refund Policy, No DRM protection and Welcome to eClassical. One of the greatest Roy Ayers albums of all time. Building Snowmen (Trio Version) 3. 9 KiB Width : 1 400 pixels Height : 1 400 pixels. Tuesday, September 03, 2019. FLAC - Music archive in lossless formats, from Trance to Classical to Rock. Comments Off on Various Artists - La musique d'Alan (inspirée de la bande dessinée d'Emmanuel Guibert) (2020) [FLAC 24bit/88,2kHz]. The Chainsmokers - Collage EP (24bit) (FLAC). Quality: FLAC 24 bit / 96 kHz (Tracks) + FLAC 16 bit / 44. 2) 24 Bit Vinyl Pack; The Smiths 24 Bit Vinyl Pack. 1 kHz/16 bit resolution, all the way up to 192 kHz/24 bit audiophile heights. Homepage / J-Music / ALBUM / Album Wagakki Band Otonoe [Flac 24 bit] Download Wagakki band otonoe flac Album Wagakki Band Otonoe [Flac 24 bit] Please buy official single/album to support the artists, all content in this blog is for promotional purpose only, we dont responsible for all users. Love To Hate Me 8. I simply do not understand what is holding. Led Zeppelin - Houses Of The Holy '1973 (Rock/Hard Rock) HI-RES 24bit/96kHz. Audio Format: FLAC HI-RES / MP3 320K / RAR Catalog Number: Release Date: 2020. ารถเลือกรองรับไฟล์เพียงรูปแบบใดรูปแบบ หนึ่งได้). Flickering Flame japan. Cherokee 03. Recently I bought a few 24 bit 192khz flac files that I want to play in all its glory. Download high quality music which are shared by people in the web free music download. Christine Tassan Quintette - Gypsy Funk 04. Only Best FLAC. Major Happy 04. Format: FLAC (Free Lossless Audio Codec) Bitrate: lossless Sample Rate: 16 Bit/44. In diesem Blog möchte ich wichtige Informationen zur Audiocodierung sowie zur Sicherung (verlustfrei: FLAC APE WAVE, etc als Die Musik wird im FLAC Format angeboten und in den Auflösungen 24BIT/192kHz und 24BIT/96kHz sowie eine 5. flac - waveform TF_Medical-Buzz. Homepage / J-Music / ALBUM / Album Wagakki Band Otonoe [Flac 24 bit] Download Wagakki band otonoe flac Album Wagakki Band Otonoe [Flac 24 bit] Please buy official single/album to support the artists, all content in this blog is for promotional purpose only, we dont responsible for all users. Sound Picture (03:36) 06. Все 153 плейлиста 957 треков. 01-Hotel California. First I need to remind everyone that the test procedure was not easy. I'll Be Loving You 02. Cardi B) 5. Here are a few that are working for me. Download Ski Mask the Slump God - STOKELEY (2018) - Album [Hi-Res 24 Bit] [Flac] Download Links 1 Download Links 1. Scorpions - Love At First Sting. Alan Walker Lily Flac 24 Bit }}- Subscribe for more hi res songs Before downloading Alan Walker Lily Flac 24 Bit Mp3 Mp4 3gp, you can preview any Video by mouse over the PLAY VIDEO button and click Play or Click DOWNLOAD button to download hd quality Mp3, Mp4 and 3Gp files. 6 meters off the speakers, center TOTAL: 43:02 01. AC/DC ‎- Blow Up Your Video (24/192) (img+cue) AC/DC - Big Gun (24/192) (img+cue) AC/DC - Whole Lotta Rosie (24/192) (img+cue) AC/DC ‎- The Razors Edge (24/192) (img+cue) AC/DC ‎- Let There Be Rock (24/192) (img+cue) AC/DC - ‎Highway To Hell (24/192) (img+cue) AC/DC - Dirty Deeds Done Dirt Cheep (24/192) (img+. com - Quality Music. Holy Ghost! - Dynamics (2013) [24 bit FLAC] vinyl; PAPA - Tender Madness (2013) [FLAC] Lady Gaga - ARTPOP 2013 WebV2 [Bubanee] Tina Arena - Reset 2013 320kbps CBR MP3; Natalie Grant - Hurricane (Deluxe Edition) 2013 32 White Denim - Corsicana Lemonade (2013) [FLAC] Emo (Vol. flac FLAC file, 48 MB 03 - Hallelujah. Not practical for listening. 未来のひとへ ~Orchestra ver. " 7digital says it will release more hi-res FLAC downloads in future. Once In A Blue Moon 2. HINDI 24 BIT FLAC COLLECTION by. Continue reading “Funkdoobiest – 1995 – Brothas Doobie (2016-Reissue) (180 Gram Audiophile Vinyl 24-bit / 96kHz)” →. FLAC 24BIT. HD hi-res Studio Master is a high-resolution audiophile FLAC version and was directly recorded of that quality in music studio. Lossless & Hi-Res Music Download. 24 bit flac. Артур Беркут - Победителей не судят [2014, Hard'n'Heavy, FLAC]. Outside of the Enhanced APTx algorithm (www. Directory of free and legal high resolution music downloads. FLAC (/flæk/; Free Lossless Audio Codec) is an audio coding format for lossless compression of digital audio, developed by the Xiph. 1 runtergerechnet) ab. Sound Picture (03:36) 06. If your 24-bit FLAC file has a different sample rate. Yundi: Beethoven - Pathétique, Moonlight, Appassionata (24/96 FLAC). Jean-Michel Jarre - Equinoxe Infinity [24-bit Hi-Res] (2018) FLAC. Quality: FLAC 24 bit / 48 kHz (Tracks) Artist: Metallica & The San Francisco Symphony Title: S&M2 Released: 2020 Style: Rock, Metal RAR Size: 1. 24 bit flac. We provide fast downloadable and reliable service for you. The Love That Binds Us 29. com - Quality Music. • 3 hours ago by rockerman in Music > Lossless. Upload, share, search and download for free. Credit allows you to download with unlimited speed. 1080p Florence And The Machine - Lungs (2009) [24 bit FLAC] vinyl quiz academy 13 A2. 24 Bit Tamil Songs, Tamil 24 Bit Songs, FLAC / WAV Lossless Songs in HD Format, Studio Quality Audio Files. Today 01:24 AM by Whitey2. Savage Garden - The Singles (2015) [24bit FLAC] Susanna Stivali - A Secret Place (2003/2014) [24bit FLAC] Johann Sebastian Bach - The Art of Fugue, BWV1080 - Rachel Podger, Brecon Baroque (2016) [24bit FLAC]. Giovanni Marradi - Christmas Classics (2003) (3CD) [APE]. 1 kHz/16 bit resolution, all the way up to 192 kHz/24 bit audiophile heights. Quality: FLAC 24 bit / 44. Download music albums in the DSD format. Christine Tassan Quintette - Gypsy Funk 04. The fact that FLAC 24-bit is played -- apparently reduced to 16-bit -- is a side-effect of another change. How You Like That 2. FLAC, first introduced in 2001, is opening up a whole new world of high-end, high-resolution audio for enthusiasts: 24-bit digital has a theoretical resolution of 144dB (compared to around 96dB in CD's 16-bit) which is more than enough, given that 130dB is the threshold of pain for the human ear. Free Mp3 Music Downloads For Pc, How To Download Music For Free On PC, FLAC, MP3 1019 KBPS Quality INSANE, TheLifeHax, 06:16, PT6M16S, 8. Torment 31. The name of the album was inspired by the New Testament. Symphonic Suite “Kiki’s Delivery Service” : On a Clear Day ~ A Town with an Ocean View (Live In Japan / 2019) 2. r/TorrentTrade can be helpful if you're looking for something specific but having a hard time finding it. Darshan Raval FLAC Discography [16bit_24bit] - [R00y] 2. Each Memory a Message 20. Toggle navigation Home. flac The 24-bit FLAC file of the second example is in 88. 1kHz FLAC sample and a 24bit/88. Good Karma. Having it encoded into 24-bit means that more detail of the audio is retained from the original vinyl pressing. The Aces - When My Heart Felt Volcanic (2018) [FLAC] Susanna Stivali - A Secret Place (2003/2014) [24bit FLAC] Rosemary Standley & Sylvain Griotto - A Queen Of Hearts (2016) [24bit FLAC]. flac FLAC file, 48 MB 03 - Hallelujah. 24 bit / 96 kHz Hi-Resolution Free FLAC. 09 gb Upload: nitroflare. All codecs operate in high resolution audio mode (32-bit floating point or greater precision), ensuring there is no additional quantization or dithering noise when converting from high resolution source (e. About R00y. Inconsolable 28. Columbine's Music Box 5. Kenny G - Brazilian Nights [2015, Smooth-jazz, sax, easy-listening, FLAC | 24bit]. Even though many recordings are advertised as being 24-bit, all 24 bits of dynamic range were only used in the recording studio to reduce quantization noise. Free Download FLAC. The meta title of your page has a length of 50 characters. The Anti Anti Super Group - the Anti Anti Super Group (2020) [FLAC]. Ski Mask the Slump God - STOKELEY (2018) - Album [Hi-Res 24 Bit] [Flac] Genres: Hip-Hop/Rap, Music Released: Nov 30, 2018 ℗ 2018 Republic Records, a division of UMG Recordings, Inc. Compressed music file (48 kHz/16 bit AAC 192 kbps). Lossless 24Bit music. The FLAC project maintains the format and provides a reference encoder/decoder and input plugins for several popular audio players. FLAC is a lossless encoding of WAV-files derived directly from our production original used for the SACD and Pure Audio Blu-ray. Undoubtedly, the quality of 24-bit FLAC is higher that CD. Software for USB Audio Bitperfect Audio-Server (Linux) Audio-Player (Linux) Audio-Player & Server (Windows) Bit-Accurate Mac OS X CD Grabber & Converter Audio-Tools. Not practical for listening. FLAC Lily Allen - No Shame [HIGHRESAUDIO HRA 24bits/44. Quality: FLAC 16 bit / 44. I know the 16-bit is a legitimate FLAC file but unsure about the 24-bit one. Home / Bollywood / FLAC / Hindi / Jeet Gannguli / Hamari Adhuri Kahani [FLAC - 2015] {Hi-Res 24-Bit Purchased from Qobuz} Hamari Adhuri Kahani [FLAC - 2015] {Hi-Res 24-Bit Purchased from Qobuz} by. We found that Flac24bit. Love Is A River (05:54) 05. all content in this blog is for promotional purpose. Sonos has no stated intention to support 24-bit officially. Birgit NOTE: This is a special hi-res digital version of Flowmotion. 1 or in lossless and Hi-Res formats FLAC, APE. HINDI 24 BIT FLAC COLLECTION by. However, Stu123 makes the great point that this is rather cumbersome if we have to put all of our media on a USB stick/external hard drive to access it. 6 meters off the speakers, center TOTAL: 43:02 01. com - Quality Music. Quality: FLAC 24 bit / 96 kHz (Tracks) Artist: Pasquale Grasso Title: Solo Standards Released: 2020 Style: Jazz RAR Size: 870 Mb Tracklist: 01. a 24-bit FLAC is just too large; that's why I'm converting it to 16-bit. We found that Flac24bit. Download link : Click here Youtube channel :youtube. flac BIS1447-002-flac_24. Double Shuffle 05. I would like to be able to play FLAC/ALAC files with Hi-Res content (up to 24 bit / 192Khz) using Kodi on NVidia Shield TV. Many BOSE Sound Touch speaker owners are eagerly awaiting the capability to play Hi Resolution 24 bit FLAC music files, now a common place format. Not practical for listening. First I need to remind everyone that the test procedure was not easy. Refer back to the above section on dynamic range. 1kHz to 24bit/44. The FLAC project maintains the format and provides a reference encoder/decoder and input plugins for several popular audio players. 마그넷 : magnet:?xt=urn:btih:dc81098713afce38eada1b81402e33d8c53dcbd0. First question is, does iTunes support 24-bit music? If so, in which of these formats (ALAC, FLAC, WAV, AIFF) ? ALAC up to xxx Khz FLAC up to xxx Khz WAV up to xxx Khz AIFF up to xxx Khz. I downloaded it last night and it plays back great in Foobar2000. Subscribe for more hi res songs 4 yıl önce. Search Results for : 24 bit flac ( torrents). It’s hardly a household name, but FLAC support is surprisingly widespread. So I have a 16-bit FLAC audio file of a song and also a 24-bit version. One 24bit/44. [Single] Anly - We'll Never Die;. 1 kHz (Tracks) + FLAC 16 bit / 44. Into the Wild (☆Taku Takahashi Remix) 6. But in case of Flac 16bit/44. 55 GB (2004)Eminem - Encore (Vinyl 24Bit FLAC) - Music - The Shelter http vsevolod prologue OST FLAC 24bit. The difference between 16-bit and 24-bit FLAC lies in the PCM bit resolution. Uploaded 01-26 2014, Size 758. Download Yonezu Kenshi - Stray Sheep Flac Stray Sheep (stylized in all caps) is the fifth album by Kenshi Yonezu, released on August 5, 2020. High-Resolution music file (96 kHz/24 bit FLAC). View software details ». Five Songbirds - HDCD 24 Bit (Halong_ Audio) 2oo4 FLAC. Continue reading "Body Head Bangerz - 2004 - Body. CSL Mobile's 5G customers can enjoy exclusive access to Hong Kong's first MOOV 24 bit FLAC lossless music service from April 1 to June 30 2020 under its 1O1O / csl brands. Rahman - Signature Collection [WAV - 1999] - (TCCD 6322 - TIPS) ~ Dreamchild9999 Total Pageviews. There Will Never Be Another You. Flacon fails when splitting a FLAC file created with the latest ffmpeg. Salvatori (Original Game Soundtrack) (2010) [[email protected][email protected]. DVD & CD DVD 24/96 DVD Audio DVD Audio & CD DVD Audio/Video DVD Video DVD Video & CD HDAD 24/96 24/192 HRx Laser Disc SuperDisc Video. 1khz)>CDWAV>FLAC>CDWAV>Trader's Little Helper (FLAC) Setlist: 01 Intro 02 Get Off Of My Cloud 03 It's Only Rock N Roll 04 Paint It Black 05. flac Example 2: Orchestra C. Each Memory a Message 20. 1 kHz (Tracks). TRACK 06 AUDIO TITLE "She's Leaving Home" INDEX 01 13:34:53 TRACK 07 AUDIO TITLE "Being For The Benefit Of Mr Kite" INDEX 01 17:08:24FILE "SPLHCB_2. Bruno Mars - 24K Magic Artist : Bruno Mars Album : 24K Magic Genre: Pop Quality : Flac 24bit/44. Best quality lossless flac music. I'll Remember April 02. (1) Gianna. Flac || 1571 kbps || 24 bit || 44. Download Synthpop music in multichannel formats on DVD-Audio, DTS-CD, SACD, Audio-DVD, DTS 5. Pigeons flutter a bit. How You Like That 2. 24 Bit Tamil Songs, Tamil 24 Bit Songs, FLAC / WAV Lossless Songs in HD Format, Studio Quality Audio Files. The song "Kanden" has been used as the theme song of the comedy TV series MIU404. Name Email * Message *. Download the 24bit flac now. Toggle navigation Home. these are albums requested by discord users, they will be varying genres and won't be sorted by genre/artist. It Ain't Easy (04:24) 07. Артур Беркут - Победителей не судят [2014, Hard'n'Heavy, FLAC]. 637 copyc4t May 1st, 2014. First question is, does iTunes support 24-bit music? If so, in which of these formats (ALAC, FLAC, WAV, AIFF) ? ALAC up to xxx Khz FLAC up to xxx Khz WAV up to xxx Khz AIFF up to xxx Khz. FLAC isn’t the only compressed lossless codec, but it is the only format that’s fully free and open source. The consumer version of most so-called 24-bit recordings are mastered with the dynamic range of or less than a 16-bit recording (96dB). HD hi-res Studio Master is a high-resolution audiophile FLAC version and was directly recorded of that quality in music studio. [SHARE] Gorillaz - Song Machine, Season One: Strange Timez (Deluxe) [24-Bit/44. Subscribe for more hi res songs 4 yıl önce. com Password: without a password. There are over 6 million. Blink-182: 5 Albums [24 Bit FLAC] Vinyl, 6 years, Music, 67, 8. 1 kHz Qobuz FLAC] All Hi-Res Stereo Quality FLAC files from Qobuz. Tracklist: 1. cue) Quality: lossless Covers: Complete set (600 dpi) Amount of tracks: 15 Size RAR: ~ 624. Quality: FLAC 24 bit / 44. It Just Happens. HINDI 24 BIT FLAC COLLECTION by. 1 kHz (Tracks) / FLAC 24 bit / 44. Scorpions - Love At First Sting. this is not just chariot race, it has the ending score as well. quality ranges from MP3 320 to 24/192 FLAC this is an archive, every album is in a zipped folder to save space, so looking for an individual album will be hard. com - Quality Music Only!. " 7digital says it will release more hi-res FLAC downloads in future. Download adele 21 vinyl flac Torrent For Free, Full Download. com Password: without a password. Music in cd, Vinyl rip, Audio-DVD, Dts, a wide variety of genres, styles and trends, from hard rock to classical, music news, hits, as well as compilations of popular music as lossless, rich, deep, and just a good sound. Rahman - Signature Collection [WAV - 1999] - (TCCD 6322 - TIPS) ~ Dreamchild9999 Total Pageviews. FLAC isn’t the only compressed lossless codec, but it is the only format that’s fully free and open source. This capability should be an automatic for BOSE, proud of your product features to play the best music files. Free Download FLAC. As demonstrated in Part I, the sonic difference between the original 24-bit track and the 16-bit dithered version is down below -90dB. Pretty Savage 4. From A Distance. It’s hardly a household name, but FLAC support is surprisingly widespread. You Never Know. dBpoweramp offers a free no-obligation, fully functional trial for 21 days. Recent Posts | 最近の投稿 [Album] paris match – ROUND 12 [FLAC / 24bit Lossless / WEB] [2020. If your 24-bit FLAC file has a different sample rate. Sandwidi Pierre - Le troubadour de la savane (2018 24/44 FLAC). Flac || 1571 kbps || 24 bit || 44. 5 includes support for FLAC Internet Radio. com - Quality Music Only! FLAC stands for Free Lossless Audio Codec, and it is an audio compression format like MP3, but while MP3 uses a "lossy" compression. Source : highresaudio. Very happy about the FLAC support, something I’ve been asking for since the PS3. Prima di tutto viene la qualità del file originale da cui viene fatta la conversione,poi si Quindi anche le reali prestazioni del lettore, e del sistema di riproduzione audio influiscono sulla capacità di avvertire reali differenze tra i vari formati. The Aces - When My Heart Felt Volcanic (2018) [FLAC] Susanna Stivali - A Secret Place (2003/2014) [24bit FLAC] Rosemary Standley & Sylvain Griotto - A Queen Of Hearts (2016) [24bit FLAC]. Quality: DSF 128 (5,6 MHz/1 Bit) + FLAC 24 bit / 176. Naturally I would prefer lossless, but iTunes is my preferred library, so I convert to Apple Lossless. Bonded by. io where you can enjoy music and buy your favorite album. Disco Heat 03. 24BIT (8) A. [Single] RAISE A SUILEN – Sacred world [FLAC 24bit / WEB] [Album] VIOLET EVERGARDEN: Echo Through Eternity [FLAC 24bit / WEB] [Single] Photon Maiden – Discover Universe [FLAC 24bit + MP3 320 / WEB] [Album] Letters and Doll ~Looking back on the memories of Violet Evergarden~ [FLAC 24bit / WEB] Archives. We provide fast downloadable and reliable service for you. Sonos has no stated intention to support 24-bit officially. flac Bitrate: ~1500kbps Size: 548mb TRACKLIST: 01 - Signs From You 02 - Scare Headline 03 - Mayuyama 04 - Phat Kat 05 - I Won't Go Anywhere Without You. Rahman - Signature Collection [WAV - 1999] - (TCCD 6322 - TIPS) ~ Dreamchild9999 Total Pageviews. com, file size: 58. Rory Gallagher – Albums Collection (1971-2020) {WEB Hi-Res} WEB Download | 16x Discs | Hi-Res | FLAC Tracks / 24bit / 96kHz Total Size: 22. The Song Remains The Same. Flac || 1571 kbps || 24 bit || 44. You can download Flac/Lossless/Hi-Res 24 bit Music on our site High Quality Save Audio in 1 Click Wide Choice of Songs and Albums Enter theContainer: flac (tracks) Quality: Hi-Fi, lossless audio Sample Rate: 44100 kHz / 24 bit, Stereo Source: Digital download Album Artist/Name: Tim. Bruno Mars - 24K Magic Artist : Bruno Mars Album : 24K Magic Genre: Pop Quality : Flac 24bit/44. Worth it? Is there ANY sound quality gain rippin to 24 bit FLAC for a regular CD versus 16 bit FLAC?. SHARE: 6 0 Unknown Sunday, January 29, 2017 Edit this post. 5,3 mil Me gusta. Each Memory a Message 20. 6 meters off the speakers, center TOTAL: 43:02 01. You Make It Sound So Simple. Use at most 2 channels —We currently support only mono and stereo FLAC encodings, with the first channel being the left, and the second channel being the right. Rip CD (bright, shinny, circular type thing) to FLAC, pipe the R3 Pro to the various systems (nothing spectacular, Canton, Focal, & Chane home systems, Audison Bit 10 / BLAM car stereo) = pretty darn good! Excellent for the price!. All codecs operate in high resolution audio mode (32-bit floating point or greater precision), ensuring there is no additional quantization or dithering noise when converting from high resolution source (e. Love To Hate Me 8. 9 MiB, ULed by politux: 1: 0: Aerosmith - Greatest Hits (1980) [24 bit FLAC] vinyl. The song "Kanden" has been used as the theme song of the comedy TV series MIU404. I'll Remember April 02. Bonded by. But in case of Flac 16bit/44. yazoo * situation (12'') flac 24bit-96khz archivo del blog. Toggle navigation Home. Quality: FLAC 16 bit / 44. Some Scars Never Fade 6. Blog Archive Contact Form. Best quality lossless flac music. The ultimate place to find and download great music in lossless format for freeenjoy! GUIDES. Linn Records - The Super Audio Surround Collection Vol. Acoustic Sounds Online Store. Index Of Hindi Flac. Homepage / J-Music / ALBUM / Album Wagakki Band Otonoe [Flac 24 bit] Download Wagakki band otonoe flac Album Wagakki Band Otonoe [Flac 24 bit] Please buy official single/album to support the artists, all content in this blog is for promotional purpose only, we dont responsible for all users. One of the best-known sources is surely Label 2l. Light The Light 04. 24-bits provides the opportunity to work with a large headroom margin without a noise-floor penalty which is useful during acquisition and mixing. TNCD 598 - CD Mấy Dặm Sơn Khê - Tình Ca Nguyễn Văn Đông [NRG-WAV]. The song "Kanden" has been used as the theme song of the comedy TV series MIU404. zip téléchargeable depuis les liens mega. Genres: Pop, Rock Styles: Alternative, Experimental Source: WEB Codec: FLAC Bit rate: ~ 3,000 kbps Bit depth: 24 Sample rate: 96 kHz. AKG CK61's>Nbox>Sony PCM-M10 (24 Bit/48khz) Recorded from near the back of the Tongue Pit Dead Center PCM-M10>Sound Forge Pro 10 (Fades,iZotope 64 Bit SRC/iZotope MBIT+ Bit depth conversion to 16 Bit/44. John Mayer - Born and Raised Flac 24-BIT. In: 24bit/176kHz, Classical Downloads, Hi-Res Downloads. Directory of free and legal high resolution music downloads. Good Karma. Alan Walker Lily Flac 24 Bit }}- Subscribe for more hi res songs Before downloading Alan Walker Lily Flac 24 Bit Mp3 Mp4 3gp, you can preview any Video by mouse over the PLAY VIDEO button and click Play or Click DOWNLOAD button to download hd quality Mp3, Mp4 and 3Gp files. One 24bit/44. Download Latest 24-Bit Studio Quality & 16-Bit CD Quality [First On Net] Songs and Albums For Free. Quality: FLAC 16 bit / 44. Why Dontcha. The FLAC project maintains the format and provides a reference encoder/decoder and input plugins for several popular audio players. Please answer only if you are 100% certain of what Im talking about here and you have tried it as you. flac - mp3 version TF_Medical-Buzz. Devoid of Hope 30. Birgit NOTE: This is a special hi-res digital version of Flowmotion. Ski Mask the Slump God - STOKELEY (2018) - Album [Hi-Res 24 Bit] [Flac] Genres: Hip-Hop/Rap, Music Released: Nov 30, 2018 ℗ 2018 Republic Records, a division of UMG Recordings, Inc. I think the the highest it will go is 16/44. Once In A Blue Moon 2. 1 kHz (Tracks) / FLAC 24 bit / 44. Lossless Music 16/44 to 24/192. Blog Archive Contact Form. Und die flac auf 16 Bit kodieren mit dem Hintergedanken dass 24 Bit nur Schlangenöl sind? Die FLAC sind teilweise digitally remastered und auf DVD-Audio veröffentlicht. 1O1O / csl 5G customers can enjoy exclusive access to Hong Kong's first MOOV 24 bit FLAC lossless music service from April 1 to June 30, 2020, becoming the first to experience the perfect combination of the best 5G network and the highest quality in music. 16-bit signed values ranges from -32768 to +32768 and 24-bit ranges from -8388607 to +8388607. Download : soundtrack 24bit flac Torrents for Free, Downloads via Magnet Also Available in Listed Torrents Detail Page, TorrentDownloads. 13 Oct 2018. 24] [Album] nano. I know the 16-bit is a legitimate FLAC file but unsure about the 24-bit one. Hi-Res 24 bit / FLAC 16 bit / Indie / Country / Folk / Jazz / Downtempo / Ambient/ New Age / Instrumental / Classical Kaki King - Modern Yesterday (2020) Hi-Res + FLAC Hi-Res 24 bit / FLAC 16 bit / Pop / Electronic / Club. Quality: FLAC 24 bit / 48 kHz (Tracks) Artist: Metallica & The San Francisco Symphony Title: S&M2 Released: 2020 Style: Rock, Metal RAR Size: 1. You can play FLAC files directly on various supporting devices, without decompressing. 24 2016, 13:08. According to Google safe browsing analytics, Flac24bit. However, Stu123 makes the great point that this is rather cumbersome if we have to put all of our media on a USB stick/external hard drive to access it. If you flag me (@andybob) when you find one, I'll add it in to this lis…. Bet You Wanna (feat. (1) Gianna. Download high quality music which are shared by people in the web free music download. FLAC 44kHz/24bit Download. Pink Floyd - 1967-09-10 - Stockholm, SWE (44 khz/24 bit) (Audience master FLAC) gyllene circelen SOURCE: sonic studio dsm 6 (w/ pre-amp & bass roll off) > tascam tascam dr-07 (44khz/24bit) TRANSFER: adobe audition 3. Download Latest 24-Bit Studio Quality, 16-Bit CD Quality [First On Net] Songs and Albums For Free. com - Quality Music. 1O1O / csl mobile partners MOOV for exclusive 24 bit music enjoyment. Теги: Deep House, Electronic, Dance, Pop, FLAC. You Never Know. 1 kHz Artist : John Mayer Album : Born and Raised Released : May 22, 20 Death Race 2050 2017 Bluray 1080p Light Hi-Fi - Death Race 2050 is a 2017 political satire action film directed by G. AKG CK61's>Nbox>Sony PCM-M10 (24 Bit/48khz) Recorded from near the back of the Tongue Pit Dead Center PCM-M10>Sound Forge Pro 10 (Fades,iZotope 64 Bit SRC/iZotope MBIT+ Bit depth conversion to 16 Bit/44. 1 kHz (Tracks) Artist: Christine Tassan Quintette Title: Voyage intérieur Released: 2020 Style: Jazz RAR Size: 711 Mb + 404 Mb Tracklist: 01. Here are a few that are working for me. Love To Hate Me 8. any location. Теги: Rock, Hard Rock, blues-rock, FLAC. At a guess, you're using the 3rd-party FLAC plugin from sourceforge. dancevinilocdFLAC es un blog donde se compartirá música dance 80 y 90 con alta calidad como lo es el archivo (FLAC) Free Lossless Audio Codec es un códec de audio que permite que el audio digital sea comprimido sin pérdidas de tal manera que el tamaño del archivo de audio se reduce sin que se. Antony Kalugin - Marshmallow Moondust Peder B. Listen to high quality music at www. Some Scars Never Fade 6. flac Example 2: Orchestra C. Bet You Wanna (feat. FLAC, first introduced in 2001, is opening up a whole new world of high-end, high-resolution audio for enthusiasts: 24-bit digital has a theoretical resolution of 144dB (compared to around 96dB in CD’s 16-bit) which is more than enough, given that 130dB is the threshold of pain for the human ear. Supports FLAC, mp3, m4a (Apple Lossless, AAC for iTunes & iPod), Windows Media Audio (wma), Wave and AIFF. In this installment, let's have a look at the results from the 24-bit vs. 24-bits provides the opportunity to work with a large headroom margin without a noise-floor penalty which is useful during acquisition and mixing. Major Happy 04. Blink-182: 5 Albums [24 Bit FLAC] Vinyl, 6 years, Music, 67, 8. Classical Music for Relaxation, Stress Relief & Study (FLAC Audio 24-bit 192kHz, Volume 1) Great masterpieces of classical NaturalBeatRecord Relaxing Music Pro - Audiophile Music flac 24bit - Natural Beat Record Relaxing Music Pro - Audiophile. Salvatori (Original Game Soundtrack) (2010) [[email protected][email protected]. Is the conversion from 24 to 16 bit and the resampling from 96+ kHz to 44100 kHz a problem from the point of sound mastering? I had a large collection of FLAC audio files and I converted them with great quality with The Mobile Media Converter Link it has advance settings and I think it worked. It doesn't change your file at all; it merely compresses it. Артур Беркут - Победителей не судят [2014, Hard'n'Heavy, FLAC]. 0 Hz, 24 bit, stereo, 6 bytes/frame, little-endian' (which looks correct). Very happy about the FLAC support, something I’ve been asking for since the PS3. Jeux de vagues" from "La Mer" on this album (1447-2) Singapore Symphony Orchestra / Lan Shui BIS1447-002-mp3_320. 24/96 and others; alternative, improvised and experimental music. Blog Archive Contact Form. A different free download available each month. One (Vinyl 24 bit / 192 kHz) Vinyl: Vinyl 24 bit / 192 kHz Year: 2004 Audio Codec: FLAC (*. This text will supply an expert FLAC to ALAC Converter in addition to show a simple information to transform FLAC to Apple Lossless ALAC M4A format. 0 > flac level 8 LOCATION: next to the soundboard, approx. 24] [Album] nano. Linn Records - The Super Audio Surround Collection Vol. ROCK ACADEMIA 2. You must downconvert your ALAC file to 16-bit yourself. High Definition 24 Bit Music Download Lodger Wright – Music Inspired by The Lion The Witch and The Wardrobe (2020) [Official Digital Download 24bit/96kHz] Published September 19, 2020. See more of 24 bit / 96 kHz Hi-Resolution Free FLAC on Facebook. Joe Cocker - Greatest Hits [Vinyl rip 24 bit 96 khz] [2015 Cerrone - In Concert [Vinyl rip 24 bit 192 khz] [1979, Disco. Dance with You 07. Ich kann nicht behaupten, dass ich einen Unterschied zu CD-Qualität höre, aber ich sehe nicht ein, die runterrechnen zu lassen. Quality: FLAC 24 bit / 44. In fact, that's the only way to get a sixteen-bit FLAC. First question is, does iTunes support 24-bit music? If so, in which of these formats (ALAC, FLAC, WAV, AIFF) ? ALAC up to xxx Khz FLAC up to xxx Khz WAV up to xxx Khz AIFF up to xxx Khz. You Never Know. Download Wagakki band otonoe flac Album Wagakki Band Otonoe [Flac 24 bit] By yukorin Posted on 03/09/2020. ALAC is the Apple equivalent of FLAC and makes it possible to play back 96kHz/24bit in iTunes without any additional software: XLD format converter. I work with 16bit and 24bit FLAC files, I have to use the same settings for both? i have already make a preset but i dont think this is completely lossless : Honestly i don't think premiere pro can render audio lossless. com) which can deliver a 4:1 data reduced 24 bit signal (stereo 24/48 takes 512kbps), and reports of DTS 96/24 (which I understand can deliver 24/96 5. 9 MiB, ULed by politux: 1: 0: Aerosmith - Greatest Hits (1980) [24 bit FLAC] vinyl. Afternoon Show ( Track A1 - B6 ) Evening Show ( Track C1 - D6 ). ROCK ACADEMIA 2. Исполнитель: The Michael Schenker Group Альбом: 1980 - Cry For The Nations 1980 - The Michael Schenker Group 1981 - MSG 1981 - One Night At Budokan 1984 - Rock Will Never Die Лейбл: Chrysalis [Jap] Жанр: Hard Rock / Heavy Metal Формат: FLAC (image+. Saturday, 21 June 2014. Quality: FLAC 24 bit / 96 kHz (Tracks) Artist: Pasquale Grasso Title: Solo Standards Released: 2020 Style: Jazz RAR Size: 870 Mb Tracklist: 01. a 24-bit FLAC is just too large; that's why I'm converting it to 16-bit. The FLAC project maintains the format and provides a reference encoder/decoder and input plugins for several popular audio players. The Ultimate Price 27. Теги: Deep House, Electronic, Dance, Pop, FLAC. Flowmotion 4. The difference between 16-bit and 24-bit FLAC lies in the PCM bit resolution. Pallbearer - Forgotten Days (2020) [Hi-Res] FLAC Year Of Release: 2020-10-23 Genre: Metal,Doom Metal Format: FLAC Quality: Lossless 24 bit / 44,1kHz. Folks on the Hoffman site say they (24 bit 44. This is a file which is around half of the size of the original file on a CD but sound wise it is totally indistinguishable. About audio formats FLAC and MP3. b/all4share. ca) to various "audiophile". 1 kHz (Tracks) / FLAC 24 bit / 44. The Song Remains The Same. Ice Cream 3. flac - waveform TF_Medical-Buzz. 24 bit / 96 kHz Hi-Resolution Free FLAC. One 24bit/44. Into the Wild (BUNNY Remix) (Hi-Res) DOWNLOAD From : Rapidgator, Uploaded, Katfile, Mexashare, …. 1 kHz (Tracks) Artist: Ghostemane Title: ANTI-ICON Released: 2020 Style: Cloud Rap, Hip-Hop, Horrorcore, Phonk RAR Size: 361 Mb + 229 Mb Album information. com/gameplayspro. Classical music benefits from an extended dynamic range and a more accurate waveform. Format : FLAC File Size : 119. Major Happy 04. According to Google safe browsing analytics, Flac24bit. ภาคสัญญาณขาเข้าและออก ต้องมีความละเอียด 24-bit 96 kHz ขึ้นไป. Все 153 плейлиста 957 треков. Rahman - Dil Bechara (OMPS) [24-BIT-48. 7 GB | 3% RAR Recovery. This capability should be an automatic for BOSE, proud of your product features to play the best music files. Toggle navigation Home. Feel free to request songs by commenting. 637 copyc4t May 1st, 2014. Manual de-clicking was handled in Izotope RX Advanced. Flickering Flame japan. 1 kHz/16 bit resolution, all the way up to 192 kHz/24 bit audiophile heights. We found that Flac24bit. 12 Nov 2015. Directory of free and legal high resolution music downloads. HD hi-res Studio Master is a high-resolution audiophile FLAC version and was directly recorded of that quality in music studio. The fact that FLAC 24-bit is played -- apparently reduced to 16-bit -- is a side-effect of another change. Rory Gallagher – Albums Collection (1971-2020) {WEB Hi-Res} WEB Download | 16x Discs | Hi-Res | FLAC Tracks / 24bit / 96kHz Total Size: 22. High quality Adele MP3 downloads from 7digital United States. Disclosure: Just in case anyone is wondering, I want to make it clear that I have Over the course of 2 months (April 19 to June 20, 2014), an invitation was extended from this blog (archimago. Sound Picture (03:36) 06. Label: Hansa - 208 696 Format: Vinyl, LP, Album Country: Germany Released: 1987 Genre Tracklist: A1 Gangster Love (Maxi Version) 4:24 A2 Sorry Little Sarah (Maxi Version) 5:12 A3 She's A Lady (Maxi Version) 4:59 A4. 1 kHz Qobuz FLAC] All Hi-Res Stereo Quality FLAC files from Qobuz. Kenny G - Brazilian Nights [2015, Smooth-jazz, sax, easy-listening, FLAC | 24bit]. 7digital provides a catalogue of over 30 million high-quality music tracks and a wealth of uniquely curated recommendations. Home / Bollywood / FLAC / Hindi / Jeet Gannguli / Hamari Adhuri Kahani [FLAC - 2015] {Hi-Res 24-Bit Purchased from Qobuz} Hamari Adhuri Kahani [FLAC - 2015] {Hi-Res 24-Bit Purchased from Qobuz} by. 16-bit listening test among respondents. flac FLAC file, 96 MB. Skip to content. Cardi B) 5. Westlife - Face To Face (2005) [FLAC] [24-bit. 1 kHz Artist : John Mayer Album : Born and Raised Released : May 22, 20 Death Race 2050 2017 Bluray 1080p. Und die flac auf 16 Bit kodieren mit dem Hintergedanken dass 24 Bit nur Schlangenöl sind? Die FLAC sind teilweise digitally remastered und auf DVD-Audio veröffentlicht. How You Like That 2. com/v/0Ts5tg7R/file. flac" WAVE TRACK 08 AUDIO TITLE "Within You Without You" INDEX 01 00:00:00 TRACK 09 AUDIO TITLE "When I'm Sixty-Four". The consumer version of most so-called 24-bit recordings are mastered with the dynamic range of or less than a 16-bit recording (96dB). I used 4096 bytes block size for 16-bit files (65536 / 16 = 4096). 1 kHz (Tracks) Artist: Ghostemane Title: ANTI-ICON Released: 2020 Style: Cloud Rap, Hip-Hop, Horrorcore, Phonk RAR Size: 361 Mb + 229 Mb Album information. The Love That Binds Us 29. Christine Tassan Quintette - Frissons d'avril 03. 55 MB VSEVOLOD: Prologue OST - Obzorye Island by Nikola. Leo Addeo) - MacArthur Park And Other Favorites (2018 24/96 FLAC). Quality: FLAC 24 bit / 44. Best quality lossless flac music. to je v Čechách a na Slovensku jedničkou pro svobodné sdílení souborů. These files can range all the way up to 24-bit/192kHz, or “better-than-CD quality. FLAC isn’t the only compressed lossless codec, but it is the only format that’s fully free and open source. Rory Gallagher – Albums Collection (1971-2020) {WEB Hi-Res} WEB Download | 16x Discs | Hi-Res | FLAC Tracks / 24bit / 96kHz Total Size: 22. io where you can enjoy music and buy your favorite album. Audio Format: FLAC HI-RES / MP3 320K / RAR Catalog Number: VICL-70244 Release Date: 2020. this is not just chariot race, it has the ending score as well. Steve Howe - Love Is (2020) [FLAC] Year Of Release: 2020 Genre: Prog Rock Format: FLAC (*tracks +. Good Karma. How You Like That 2. Tracklist: 1. Download Latest 24-Bit Studio Quality & 16-Bit CD Quality [First On Net] Songs and Albums For Free. One (Vinyl 24 bit / 192 kHz) Vinyl: Vinyl 24 bit / 192 kHz Year: 2004 Audio Codec: FLAC (*. 1 kHz (Tracks) / FLAC 24 bit / 44. 99, you get three downloads: FLAC24, FLAC16, AAC320k. First question is, does iTunes support 24-bit music? If so, in which of these formats (ALAC, FLAC, WAV, AIFF) ? ALAC up to xxx Khz FLAC up to xxx Khz WAV up to xxx Khz AIFF up to xxx Khz. Additionally to this, our entire system is monitored 24 hours a day, 365 days a year to provide you with 99. Vinyl: 24 bit / 96 kHz Year: 1995 Audio Codec: FLAC (*. Into the Wild (BUNNY Remix) (Hi-Res) DOWNLOAD From : Rapidgator, Uploaded, Katfile, Mexashare, …. Inconsolable 28. Quality: FLAC 24 bit / 48 kHz (Tracks) + FLAC 16 bit / 44. Format : FLAC Format/Info : Free Lossless Audio Codec Bit rate mode : Variable Bit rate : 3200 Kbps Channel(s) : 4 channels Sampling rate : 96. Major Happy 04. The name of the album was inspired by the New Testament. Groove School 10. I would like to be able to play FLAC/ALAC files with Hi-Res content (up to 24 bit / 192Khz) using Kodi on NVidia Shield TV. Tuesday, September 03, 2019. Sandwidi Pierre - Le troubadour de la savane (2018 24/44 FLAC). These files can range all the way up to 24-bit/192kHz, or “better-than-CD quality. 1kHz would only change the AVAILABLE dynamic range of a given recording, as opposed to actually increasing or even changing the dynamic range of the music on the recording, should. Wherever You Are, Wherever You May Be 24. 3 (amplify, tracking) > FLAC 24-bit/96kHz or 320kbps m4a. Audio Format: FLAC HI-RES / RAR Catalog Number: LACA-9751 Release Date: 2020. Some Scars Never Fade 6. The consumer version of most so-called 24-bit recordings are mastered with the dynamic range of or less than a 16-bit recording (96dB). The name of the album was inspired by the New Testament. All codecs operate in high resolution audio mode (32-bit floating point or greater precision), ensuring there is no additional quantization or dithering noise when converting from high resolution source (e. Jermaine Dupri and Trina). Never Coming Back 25. Afternoon Show ( Track A1 - B6 ) Evening Show ( Track C1 - D6 ). "The Radiohead album, produced by Nigel Godrich, was recorded in 24-bit digital audio and it's great listeners will now be able to download and hear the album in the quality it deserves. Within FLAC, there are various possible sample rates and bit rates, from standard CD 44. Nahrávejte, sdílejte a stahujte zdarma. 1 kHz (Tracks) Artist: Vanesa Martin Title: Siete veces sí Released: 2020 Style: Pop RAR Size: 291 / 513 Mb. Format: FLAC (Free Lossless Audio Codec) Bitrate: lossless Sample Rate: 16 Bit/44. Crazy Over You 7. Adam Miller repo owner created an issue 2018-02-07. Index Of Hindi Flac. Comments Off on Various Artists - La musique d'Alan (inspirée de la bande dessinée d'Emmanuel Guibert) (2020) [FLAC 24bit/88,2kHz]. One 24bit/44. 1 (flac - Command-line FLAC encoder/decoder version 1. It Ain't Easy (04:24) 07. Savage Garden - The Singles (2015) [24bit FLAC] Susanna Stivali - A Secret Place (2003/2014) [24bit FLAC] Johann Sebastian Bach - The Art of Fugue, BWV1080 - Rachel Podger, Brecon Baroque (2016) [24bit FLAC]. 99% uptime, stability and security. Points Of Authority. Vinyl - 24 bit / 192 kHz | FLAC. Blink-182: 5 Albums [24 Bit FLAC] Vinyl, 6 years, Music, 67, 8. Quality: FLAC 24 bit / 44. Audio Info 1. Vinyl: 24 bit / 96 kHz Year: 1995 Audio Codec: FLAC (*. 7digital provides a catalogue of over 30 million high-quality music tracks and a wealth of uniquely curated recommendations. Antony Kalugin - Marshmallow Moondust Peder B. 9 MiB, ULed by politux: 1: 0: Aerosmith - Greatest Hits (1980) [24 bit FLAC] vinyl. a 24-bit FLAC is just too large; that's why I'm converting it to 16-bit. 24 bit flac. FLAC is Free Lossless Audio Codec. About R00y. Ancak FLAC müziğin 16-bit ve 24-bit seçenekleri var. These files can range all the way up to 24-bit/192kHz, or “better-than-CD quality. 24bitmusic(flac). Genelde 16-bit dinliyordum yaklaşık boyutu 25 30 mb arasında oluyor. dBpoweramp offers a free no-obligation, fully functional trial for 21 days. If your 24-bit FLAC file has a different sample rate. Download the 24bit flac now. io where you can enjoy music and buy your favorite album. yazoo * situation (12'') flac 24bit-96khz archivo del blog. Bet You Wanna (feat. I'll Remember April 02. Just curious in buying flac versions of songs if there is a huge difference between the 16 and 24 bit versions?. com/gameplayspro. 55 GB (2004)Eminem - Encore (Vinyl 24Bit FLAC) - Music - The Shelter http vsevolod prologue OST FLAC 24bit. Groove School 10. r/TorrentTrade can be helpful if you're looking for something specific but having a hard time finding it. HINDI 24 BIT FLAC COLLECTION by. Audio Info 1. These files can range all the way up to 24-bit/192kHz, or “better-than-CD quality. Prima di tutto viene la qualità del file originale da cui viene fatta la conversione,poi si Quindi anche le reali prestazioni del lettore, e del sistema di riproduzione audio influiscono sulla capacità di avvertire reali differenze tra i vari formati. 1 kHz (Tracks) / FLAC 24 bit / 44. What is happening is that the JustFLAC code is saying that the audio format of the FLAC file is 'PCM_SIGNED 192000. Please support our channel for more orginial 24bit Flac songs. • 3 hours ago by rockerman in Music > Lossless. Semua lagu yang ane share real kualitas master Quality Lossles FLAC ya, BUKAN hasil upscaled, upsampled atau bahkan transcoded dari MP3.